The Avengers 2012 CAM V2 XViD 26K

seeders: 165
leechers: 35
Added on April 28, 2012 by hail_alphain Movies
Torrent verified.

The Avengers 2012 CAM V2 XViD 26K (Size: 1.76 GB)
 HDSceneRG.txt115 bytes
 sample1.avi30.57 MB
 sample2.avi33.38 MB
 sample3.avi36.86 MB bytes
 The.Avengers.2012.CAM.V2.XViD-26K.avi1.66 GB
 The.Avengers.2012.CAM.V2.XViD-26K.nfo3.85 KB
 Torrent downloaded from bytes
 Torrent downloaded from bytes
 YouTube Latest Releases And Archive.txt86 bytes


The.Avengers.2012.CAM.V2.XViD-26KImdb: Fury of S.H.I.E.L.D. brings together a team of super humans to form The Avengers to help save the Earth from Loki and his army.Sources:video-thnxsaudio-thnxssubs-greek...Notes:same video as before.. but this time cropped out the subs.. so take your pic :)...enjoy.Greetz:Xtreme Encode|FYA|ILLUMANTI|CM8|RX|VISION|HDSCENE|NIGHTMAREZ|xTriLL|DTRG|CRYS|REMIXHD|BIDA|RX|REFILL|INSPiRAL|SIC|HOPE|Anonymous|GooN|P76|MIRAGE|ESCA|KoDeKinGTo all the people who have helped me :P you know who you areAnything to offer email us @: 26k@hushmail.meVideoID : 0Format : MPEG-4 VisualFormat profile : Advanced Simple@L5Format settings, BVOP : 2Format settings, QPel : NoFormat settings, GMC : No warppointsFormat settings, Matrix : Default (H.263)Codec ID : XVIDCodec ID/Hint : XviDDuration : 2h 11mnBit rate : 1 599 KbpsWidth : 720 pixelsHeight : 240 pixelsDisplay aspect ratio : 3.000Frame rate : 30.000 fpsColor space : YUVChroma subsampling : 4:2:0Bit depth : 8 bitsScan type : ProgressiveCompression mode : LossyBits/(Pixel*Frame) : 0.309Stream size : 1.47 GiB (89%)Writing library : XviD 64AudioID : 1Format : MPEG AudioFormat version : Version 1Format profile : Layer 3Mode : Joint stereoMode extension : MS StereoCodec ID : 55Codec ID/Hint : MP3Duration : 1h 43mnSource duration : 2h 11mnBit rate mode : ConstantBit rate : 192 KbpsChannel(s) : 2 channelsSampling rate : 44.1 KHzCompression mode : LossyStream size : 181 MiB (11%)Alignment : Aligned on interleavesInterleave, duration : 26 ms (0.78 video frame)


Thank you smallz for banner!

Related Torrents

torrent name size seed leech

Sharing Widget

Download torrent
1.76 GB
The Avengers 2012 CAM V2 XViD 26K


All Comments

BluRays, DVDs, WebRips etc are all out but seedrs on this CAM Rip Till now Give me a Shock.
Thanks Uploader
thnx for the share